logo

Crazy.Famous.2017.1080p.WEB-DL.DD5.1.H.264.CRO-DIAMOND

  • Category Movies
  • Type HD
  • Language English
  • Total size 2.7 GB
  • Uploaded By dmd12
  • Downloads 27
  • Last checked 19 hours ago
  • Date uploaded 5 days ago
  • Seeders 0
  • Leechers 1

Crazy Famous

ActionComedy

A fame obsessed average Joe escapes a mental institution with a band of misfits for one last desperate attempt to be famous.

Infohash : 0CFE12221C7064491017ACB8CE9465D4C2136B25

Download Crazy.Famous.2017.1080p.WEB-DL.DD5.1.H.264.CRO-DIAMOND Torrent
Download Crazy.Famous.2017.1080p.WEB-DL.DD5.1.H.264.CRO-DIAMOND Torrent

Mediainfo:

Code:

General
Unique ID : 93975724666659511040733007361592735421 (0x46B310F3AB62163B7A3518E5597B36BD)
Complete name : Crazy.Famous.2017.1080p.WEB-DL.DD5.1.H.264.CRO-DIAMOND.mkv
Format : Matroska
Format version : Version 4 / Version 2
File size : 2.66 GiB
Duration : 1h 17mn
Overall bit rate : 4 898 Kbps
Movie name : CRO DIAMOND 1080p
Encoded date : UTC 2018-01-13 23:21:50
Writing application : mkvmerge v6.7.0 ('Back to the Ground') 64bit built on Jan 9 2014 18:03:17
Writing library : libebml v1.3.0 + libmatroska v1.4.1

Video
ID : 1
Format : AVC
Format/Info : Advanced Video Codec
Format profile : [email protected]
Format settings, CABAC : Yes
Format settings, ReFrames : 5 frames
Codec ID : V_MPEG4/ISO/AVC
Duration : 1h 17mn
Bit rate : 4 416 Kbps
Width : 1 904 pixels
Height : 796 pixels
Display aspect ratio : 2.40:1
Frame rate mode : Constant
Frame rate : 23.976 fps
Color space : YUV
Chroma subsampling : 4:2:0
Bit depth : 8 bits
Scan type : Progressive
Bits/(Pixel*Frame) : 0.122
Stream size : 2.40 GiB (90%)
Title : CRO DIAMOND 1080p
Language : English
Default : Yes
Forced : No
Color range : Limited
Color primaries : BT.709
Transfer characteristics : BT.709
Matrix coefficients : BT.709

Audio
ID : 2
Format : AC-3
Format/Info : Audio Coding 3
Mode extension : CM (complete main)
Format settings, Endianness : Big
Codec ID : A_AC3
Duration : 1h 17mn
Bit rate mode : Constant
Bit rate : 384 Kbps
Channel(s) : 6 channels
Channel positions : Front: L C R, Side: L R, LFE
Sampling rate : 48.0 KHz
Compression mode : Lossy
Stream size : 214 MiB (8%)
Language : English
Default : Yes
Forced : No

Text
ID : 3
Format : UTF-8
Codec ID : S_TEXT/UTF8
Codec ID/Info : UTF-8 Plain Text
Language : English
Default : No
Forced : No

Menu
00:00:00.000 : en:Jump the Fence
00:02:27.147 : en:Involuntary Commitment
00:06:19.379 : en:Meltdown
00:08:26.506 : en:Hannah Helps
00:09:51.591 : en:Meet the Patients
00:15:59.959 : en:Interrogation
00:19:38.177 : en:Jackpot's Alive
00:21:49.308 : en:Fame Talk
00:24:39.478 : en:Recruiting Larry
00:26:19.578 : en:Breakout Plan
00:28:34.713 : en:Escape Time
00:36:03.161 : en:They Got Out
00:38:00.278 : en:Gun Store
00:42:14.532 : en:The Chase
00:47:14.832 : en:Parental Visit
00:51:17.074 : en:Group Dissension
00:56:44.401 : en:Roadblock
01:02:21.738 : en:Bringing Down Jackpot
01:09:23.159 : en:Bob Returns
01:11:05.261 : en:Group Therapy
01:14:48.484 : en:End Credits

Files:

  • Crazy.Famous.2017.1080p.WEB-DL.DD5.1.H.264.CRO-DIAMOND.mkv (2.7 GB)

There are currently no comments. Feel free to leave one :)